<?xml version="1.0" standalone="no"?>
<!DOCTYPE svg PUBLIC "-//W3C//DTD SVG 1.1//EN" "http://www.w3.org/Graphics/SVG/1.1/DTD/svg11.dtd" >
<svg xmlns="http://www.w3.org/2000/svg" xmlns:xlink="http://www.w3.org/1999/xlink" version="1.1">
<metadata>
Created by FontForge 20170812 at Wed Jun 21 12:09:28 2023
 By www-data
Typeface (c) (Linecreative). 2020. All Rights Reserved
</metadata>
<defs>
<font id="BordDemo" horiz-adv-x="1720" >
  <font-face 
    font-family="Bord Demo"
    font-weight="400"
    font-stretch="normal"
    units-per-em="2048"
    panose-1="2 0 6 0 0 0 0 0 0 0"
    ascent="1638"
    descent="-410"
    x-height="1366"
    cap-height="1366"
    bbox="-406 -463 2898 1831"
    underline-thickness="102"
    underline-position="-255"
    unicode-range="U+001D-2212"
  />
<missing-glyph horiz-adv-x="1150" 
d="M987 0h-823v1434h823v-1434zM938 49v1335h-725v-1335h725zM541 455h-31q-35 88 -35 147q0 75 80 217q82 143 82 217q0 57 -32.5 90t-90.5 33q-61 0 -125 -55v45q80 72 170 72q91 0 147 -46t56 -128q0 -51 -24.5 -102t-84.5 -128q-54 -66 -100 -131q-35 -53 -35 -98
q0 -30 23 -133zM530 213q-10 0 -20 10l-61 72q-7 7 -7 16q0 12 11 23l57 57q8 10 20 10q8 0 21 -10l57 -59q8 -11 8 -21q0 -9 -10 -22l-55 -62q-14 -14 -21 -14z" />
    <glyph glyph-name=".notdef" horiz-adv-x="1150" 
d="M987 0h-823v1434h823v-1434zM938 49v1335h-725v-1335h725zM541 455h-31q-35 88 -35 147q0 75 80 217q82 143 82 217q0 57 -32.5 90t-90.5 33q-61 0 -125 -55v45q80 72 170 72q91 0 147 -46t56 -128q0 -51 -24.5 -102t-84.5 -128q-54 -66 -100 -131q-35 -53 -35 -98
q0 -30 23 -133zM530 213q-10 0 -20 10l-61 72q-7 7 -7 16q0 12 11 23l57 57q8 10 20 10q8 0 21 -10l57 -59q8 -11 8 -21q0 -9 -10 -22l-55 -62q-14 -14 -21 -14z" />
    <glyph glyph-name=".notdef" horiz-adv-x="1150" 
d="M987 0h-823v1434h823v-1434zM938 49v1335h-725v-1335h725zM541 455h-31q-35 88 -35 147q0 75 80 217q82 143 82 217q0 57 -32.5 90t-90.5 33q-61 0 -125 -55v45q80 72 170 72q91 0 147 -46t56 -128q0 -51 -24.5 -102t-84.5 -128q-54 -66 -100 -131q-35 -53 -35 -98
q0 -30 23 -133zM530 213q-10 0 -20 10l-61 72q-7 7 -7 16q0 12 11 23l57 57q8 10 20 10q8 0 21 -10l57 -59q8 -11 8 -21q0 -9 -10 -22l-55 -62q-14 -14 -21 -14z" />
    <glyph glyph-name=".null" horiz-adv-x="0" 
 />
    <glyph glyph-name="nonmarkingreturn" horiz-adv-x="682" 
 />
    <glyph glyph-name="space" unicode=" " horiz-adv-x="1040" 
 />
    <glyph glyph-name="space" unicode="&#xa0;" horiz-adv-x="1040" 
 />
    <glyph glyph-name="exclam" unicode="!" horiz-adv-x="606" 
d="M442 371h-278v997h278v-997zM442 0h-278v279h278v-279z" />
    <glyph glyph-name="quotedbl" unicode="&#x22;" horiz-adv-x="884" 
d="M395 903h-231v465h231v-465zM721 903h-232v465h232v-465z" />
    <glyph glyph-name="numbersign" unicode="#" horiz-adv-x="1789" 
d="M1042 0h-294l65 186h-197l-67 -186h-295l65 186h-196l100 279h197l160 438h-197q75 211 100 279h197l68 186h294l-65 -186h197l67 186h295l-66 -186h197l-100 -279h-197l-160 -438h197l-100 -279h-197zM913 465l160 438h-196l-160 -438h196z" />
    <glyph glyph-name="dollar" unicode="$" 
d="M999 -184h-278v184h-557v279h557v266h-146q-170 0 -290.5 120.5t-120.5 290.5t120.5 291t290.5 121h146v184h278v-184h557v-278h-557v-267h146q170 0 290.5 -120.5t120.5 -290.5t-120.5 -291t-290.5 -121h-146v-184zM721 823v267h-146q-55 0 -94 -39t-39 -95t39 -94.5
t94 -38.5h146zM1145 279q55 0 94 38.5t39 94.5t-39 94.5t-94 38.5h-146v-266h146z" />
    <glyph glyph-name="percent" unicode="%" horiz-adv-x="3061" 
d="M1382 0h-196l493 1368h197zM860 279h-278q-173 0 -295.5 122t-122.5 295v254q0 173 122.5 295.5t295.5 122.5h278q173 0 295.5 -122.5t122.5 -295.5v-254q0 -173 -122.5 -295t-295.5 -122zM860 557q58 0 98.5 40.5t40.5 98.5v254q0 59 -40.5 99.5t-98.5 40.5h-278
q-57 0 -98.5 -41t-41.5 -99v-254q0 -58 41.5 -98.5t98.5 -40.5h278zM2480 0h-278q-173 0 -295.5 123t-122.5 295v254q0 173 122.5 295.5t295.5 122.5h278q173 0 295.5 -122.5t122.5 -295.5v-254q0 -172 -122.5 -295t-295.5 -123zM2480 279q57 0 98 41t41 98v254
q0 58 -41 98.5t-98 40.5h-278q-59 0 -99.5 -40.5t-40.5 -98.5v-254q0 -57 41 -98t99 -41h278z" />
    <glyph glyph-name="ampersand" unicode="&#x26;" horiz-adv-x="1722" 
d="M1559 0h-279v23q-71 -23 -135 -23h-567q-171 0 -292.5 123t-121.5 289q0 156 104 272q-104 116 -104 272q0 170 121 291t293 121h567v-278h-567q-56 0 -96 -39.5t-40 -94.5t40 -94t96 -39h702v164h279v-987zM1145 279q56 0 95.5 39t39.5 94v133h-702q-56 0 -96 -39
t-40 -94t40 -94t96 -39h567z" />
    <glyph glyph-name="quotesingle" unicode="'" horiz-adv-x="559" 
d="M395 903h-231v465h231v-465z" />
    <glyph glyph-name="parenleft" unicode="(" horiz-adv-x="798" 
d="M391 -184l244 135q-193 343 -193 733q0 393 193 733l-244 135q-227 -400 -227 -868q0 -465 227 -868z" />
    <glyph glyph-name="parenright" unicode=")" horiz-adv-x="798" 
d="M408 -184l-244 135q192 341 192 733q0 395 -192 733l244 135q227 -400 227 -868q0 -465 -227 -868z" />
    <glyph glyph-name="asterisk" unicode="*" horiz-adv-x="1144" 
d="M698 731h-252v170l-141 -94l-141 209l182 123l-182 123l141 208l141 -94v172h252v-172l140 94l143 -208l-184 -123l184 -123l-143 -209l-140 94v-170z" />
    <glyph glyph-name="plus" unicode="+" horiz-adv-x="1284" 
d="M782 207h-278v338h-340v278h340v338h278v-338h338v-278h-338v-338z" />
    <glyph glyph-name="comma" unicode="," horiz-adv-x="606" 
d="M209 -117q-17 0 -45 4v95q26 2 65 18q-65 43 -65 121q0 57 40.5 97t98.5 40q57 0 98 -40t41 -97q0 -95 -69.5 -166.5t-163.5 -71.5z" />
    <glyph glyph-name="hyphenminus" unicode="-" horiz-adv-x="1284" 
d="M1120 545h-956v278h956v-278z" />
    <glyph glyph-name="hyphenminus" unicode="&#xad;" horiz-adv-x="1284" 
d="M1120 545h-956v278h956v-278z" />
    <glyph glyph-name="period" unicode="." horiz-adv-x="606" 
d="M303 0q-58 0 -98.5 41t-40.5 98q0 59 40.5 99.5t98.5 40.5t98.5 -40.5t40.5 -99.5q0 -57 -40.5 -98t-98.5 -41z" />
    <glyph glyph-name="slash" unicode="/" horiz-adv-x="1116" 
d="M461 0h-297l493 1368h295z" />
    <glyph glyph-name="zero" unicode="0" 
d="M1139 0h-557q-173 0 -295.5 122.5t-122.5 295.5v532q0 172 122.5 294t295.5 122h557q173 0 295 -122t122 -294v-532q0 -173 -122 -295.5t-295 -122.5zM1139 279q59 0 99 40.5t40 98.5v532q0 57 -40.5 98.5t-98.5 41.5h-557q-57 0 -98.5 -41.5t-41.5 -98.5v-532
q0 -58 41.5 -98.5t98.5 -40.5h557z" />
    <glyph glyph-name="one" unicode="1" horiz-adv-x="606" 
d="M442 0h-278v1090h-187v276h465v-1366z" />
    <glyph glyph-name="two" unicode="2" 
d="M1556 0h-1392v412q0 170 120.5 290.5t290.5 120.5h570q55 0 94 38.5t39 94.5t-39 95t-94 39h-981v276h981q170 0 290.5 -120t120.5 -290t-120.5 -290.5t-290.5 -120.5h-570q-55 0 -94 -38.5t-39 -94.5v-133h1114v-279z" />
    <glyph glyph-name="three" unicode="3" 
d="M1145 0h-981v279h981q55 0 94 38.5t39 94.5t-39 94.5t-94 38.5h-703v278h703q55 0 94 38.5t39 94.5t-39 95t-94 39h-981v276h981q171 0 291 -122t120 -288q0 -156 -104 -272q104 -116 104 -272q0 -170 -120.5 -291t-290.5 -121z" />
    <glyph glyph-name="four" unicode="4" 
d="M1556 0h-278v545h-1114v821h278v-543h836v543h278v-1366z" />
    <glyph glyph-name="five" unicode="5" 
d="M1145 0h-981v279h981q55 0 94 38.5t39 94.5t-39 94.5t-94 38.5h-981v821h1392v-276h-1114v-267h703q170 0 290.5 -120.5t120.5 -290.5t-120.5 -291t-290.5 -121z" />
    <glyph glyph-name="six" unicode="6" 
d="M1145 0h-570q-170 0 -290.5 121t-120.5 291v544q0 170 120.5 290t290.5 120h570q170 0 290.5 -120t120.5 -290h-278q0 56 -39 95t-94 39h-570q-55 0 -94 -39t-39 -95v-155q68 22 133 22h570q170 0 290.5 -120.5t120.5 -290.5t-120.5 -291t-290.5 -121zM1145 279
q55 0 94 38.5t39 94.5t-39 94.5t-94 38.5h-570q-55 0 -94 -38.5t-39 -94.5t39 -94.5t94 -38.5h570z" />
    <glyph glyph-name="seven" unicode="7" 
d="M510 0h-346l823 1090h-823v276h1392z" />
    <glyph glyph-name="eight" unicode="8" horiz-adv-x="1722" 
d="M1147 0h-569q-158 0 -275 102q-68 61 -103.5 141.5t-35.5 168.5q0 156 104 272q-104 113 -104 272q0 170 121.5 290t292.5 120h569q171 0 291.5 -122t120.5 -288q0 -155 -105 -272q105 -117 105 -272q0 -170 -121 -291t-291 -121zM1147 279q54 0 93.5 39t39.5 94
t-39.5 94t-93.5 39h-569q-56 0 -95 -39t-39 -94t39 -94t95 -39h569zM1147 823q54 0 93.5 39t39.5 94t-39.5 94.5t-93.5 39.5h-569q-56 0 -95 -39t-39 -95q0 -55 39 -94t95 -39h569z" />
    <glyph glyph-name="nine" unicode="9" 
d="M1145 0h-570q-170 0 -290.5 121t-120.5 291h278q0 -56 39 -94.5t94 -38.5h570q55 0 94 38.5t39 94.5v155q-59 -22 -133 -22h-570q-170 0 -290.5 120.5t-120.5 290.5t120.5 290t290.5 120h570q170 0 290.5 -120t120.5 -290v-544q0 -170 -120.5 -291t-290.5 -121zM1145 823
q55 0 94 38.5t39 94.5t-39 95t-94 39h-570q-55 0 -94 -39t-39 -95t39 -94.5t94 -38.5h570z" />
    <glyph glyph-name="colon" unicode=":" horiz-adv-x="606" 
d="M303 776q-58 0 -98.5 41t-40.5 98q0 59 40.5 99.5t98.5 40.5t98.5 -40.5t40.5 -99.5q0 -57 -40.5 -98t-98.5 -41zM303 313q-58 0 -98.5 40.5t-40.5 99.5q0 57 40.5 98t98.5 41t98.5 -41t40.5 -98q0 -59 -40.5 -99.5t-98.5 -40.5z" />
    <glyph glyph-name="semicolon" unicode=";" horiz-adv-x="606" 
d="M303 776q-57 0 -98 41t-41 98q0 58 41 99t98 41q58 0 98.5 -40.5t40.5 -99.5q0 -57 -40.5 -98t-98.5 -41zM209 217q-17 0 -45 4v92q37 6 67 21q-31 19 -49 50.5t-18 68.5q0 57 41 98t98 41q58 0 98.5 -41t40.5 -98q0 -103 -69.5 -169.5t-163.5 -66.5z" />
    <glyph glyph-name="less" unicode="&#x3c;" horiz-adv-x="1226" 
d="M1063 180h-395l-504 504l504 504h395l-506 -504z" />
    <glyph glyph-name="equal" unicode="=" horiz-adv-x="1284" 
d="M1120 313h-956v279h956v-279zM1120 778h-956v279h956v-279z" />
    <glyph glyph-name="greater" unicode="&#x3e;" horiz-adv-x="1226" 
d="M557 180h-393l504 504l-504 504h393l506 -504z" />
    <glyph glyph-name="question" unicode="?" 
d="M721 0h-279v279h279v-279zM721 371h-279v41q0 170 121 290.5t291 120.5h291q55 0 94 38.5t39 94.5t-39 95t-94 39h-981v276h981q170 0 290.5 -120t120.5 -290t-120.5 -290.5t-290.5 -120.5h-291q-56 0 -94.5 -38.5t-38.5 -94.5v-41z" />
    <glyph glyph-name="at" unicode="@" horiz-adv-x="2609" 
d="M1583 -463h-557q-179 0 -342.5 70t-282 188t-188.5 281t-70 342v532q0 239 118.5 442t321.5 321t443 118h557q240 0 443 -118t321.5 -321t118.5 -442v-532q0 -221 -107 -418h-1333q-173 0 -295.5 123t-122.5 295v69q0 172 122.5 294t295.5 122h696v47q0 58 -41 99t-98 41
h-835v278h835q173 0 295.5 -122.5t122.5 -295.5v-680q0 -57 40.5 -98t98.5 -41t98.5 40.5t40.5 98.5v680q0 189 -93 349.5t-253.5 254t-349.5 93.5h-557q-189 0 -349.5 -93.5t-253.5 -254t-93 -349.5v-532q0 -188 93 -348t253.5 -253t349.5 -93h557q209 0 375 108l100 -156
q-218 -139 -475 -139zM1583 279q57 0 98 41t41 98v209h-696q-58 0 -98.5 -41.5t-40.5 -98.5v-69q0 -57 40.5 -98t98.5 -41h557z" />
    <glyph glyph-name="A" unicode="A" horiz-adv-x="2029" 
d="M1866 0h-328l-522 840l-350 -561h327l-174 -279h-655l852 1366z" />
    <glyph glyph-name="B" unicode="B" horiz-adv-x="1718" 
d="M1143 0h-979v821h887q55 0 94 38.5t39 94.5t-39 94.5t-94 38.5h-609v-169l-278 448h887q168 0 288.5 -121.5t120.5 -290.5q0 -118 -63 -221q74 -59 115.5 -143.5t41.5 -179.5q0 -169 -120.5 -289.5t-290.5 -120.5zM1143 276q55 0 94 40t39 94q0 56 -39 94.5t-94 38.5
h-701v-267h701z" />
    <glyph glyph-name="C" unicode="C" 
d="M1139 0h-557q-173 0 -295.5 122.5t-122.5 295.5v532q0 172 122.5 294t295.5 122h974v-236l-276 -446h-2v406h-696q-57 0 -98.5 -41.5t-41.5 -98.5v-532q0 -58 41.5 -98.5t98.5 -40.5h557q59 0 99 40.5t40 98.5h278q0 -173 -122 -295.5t-295 -122.5z" />
    <glyph glyph-name="D" unicode="D" 
d="M442 -289l-278 447v121h975q59 0 99 40.5t40 98.5v532q0 57 -40.5 98.5t-98.5 41.5h-697v-533h-278v811h975q173 0 295 -123t122 -295v-532q0 -173 -122 -295.5t-295 -122.5h-697v-289z" />
    <glyph glyph-name="E" unicode="E" horiz-adv-x="1718" 
d="M1554 -291l-180 291h-1210v1366h1390v-279h-1112v-266h834v-278h-834v-267h1112v-567z" />
    <glyph glyph-name="F" unicode="F" horiz-adv-x="1708" 
d="M432 -291l-278 447v665h1112l-172 -278h-662v-834zM1544 1087h-1390v279h1390v-279z" />
    <glyph glyph-name="G" unicode="G" horiz-adv-x="1718" 
d="M1554 -291l-180 291h-792q-173 0 -295.5 122t-122.5 294v532q0 173 122.5 295.5t295.5 122.5h555q172 0 294.5 -122.5t122.5 -295.5h-278q0 58 -41 98.5t-98 40.5h-555q-59 0 -99.5 -40.5t-40.5 -98.5v-532q0 -57 41 -98.5t99 -41.5h694v267h-279v278h557v-1112z" />
    <glyph glyph-name="H" unicode="H" horiz-adv-x="1718" 
d="M1554 -291l-278 449v385h-834v-543h-278v1366h278v-545h834v545h278v-1657z" />
    <glyph glyph-name="I" unicode="I" horiz-adv-x="606" 
d="M442 -291l-278 447v653h278v-1100zM442 1087h-278v279h278v-279z" />
    <glyph glyph-name="J" unicode="J" horiz-adv-x="1161" 
d="M442 -291l-278 449v118h418q57 0 97 41.5t40 98.5v671h-277v279h555v-950q0 -172 -121.5 -294t-293.5 -122h-140v-291z" />
    <glyph glyph-name="K" unicode="K" horiz-adv-x="1730" 
d="M1567 -291h-330l-520 834h-275v-543h-278v1364h278v-543h269l477 543h373l-603 -682z" />
    <glyph glyph-name="L" unicode="L" horiz-adv-x="1718" 
d="M1554 -291l-180 291h-1210v1366h278v-1090h1112v-567z" />
    <glyph glyph-name="M" unicode="M" horiz-adv-x="1718" 
d="M858 -291l-416 699v-408h-278v1366l694 -1163l696 1163v-1366h-278v408z" />
    <glyph glyph-name="N" unicode="N" horiz-adv-x="1591" 
d="M1427 -291l-985 985v-694h-278v1366l985 -985v985h278v-1657z" />
    <glyph glyph-name="O" unicode="O" horiz-adv-x="1718" 
d="M1137 0h-555q-173 0 -295.5 122t-122.5 294v532q0 173 122.5 295.5t295.5 122.5h555q172 0 294.5 -122.5t122.5 -295.5v-532q0 -172 -122.5 -294t-294.5 -122zM1137 276q57 0 98 41.5t41 98.5v532q0 58 -41 98.5t-98 40.5h-555q-59 0 -99.5 -40.5t-40.5 -98.5v-532
q0 -57 41 -98.5t99 -41.5h555zM905 590h-92q-20 0 -33.5 13.5t-13.5 33.5v92q0 19 13.5 32t33.5 13h92q19 0 33 -13t14 -32v-92q0 -20 -14 -33.5t-33 -13.5z" />
    <glyph glyph-name="P" unicode="P" horiz-adv-x="1708" 
d="M432 -291l-278 449v663h979q55 0 94 38.5t39 94.5t-39 94.5t-94 38.5h-701v-169l-278 448h979q170 0 290.5 -121t120.5 -291t-120.5 -290.5t-290.5 -120.5h-701v-834z" />
    <glyph glyph-name="Q" unicode="Q" horiz-adv-x="1718" 
d="M924 590h-95q-19 0 -32 13.5t-13 33.5v92q0 20 13 33.5t32 13.5h95q19 0 32 -13.5t13 -33.5v-92q0 -20 -13 -33.5t-32 -13.5zM997 -291l-180 291h-235q-173 0 -295.5 122t-122.5 294v532q0 173 122.5 295.5t295.5 122.5h555q172 0 294.5 -122.5t122.5 -295.5v-532
q0 -172 -122.5 -294t-294.5 -122v276q57 0 98 41.5t41 98.5v532q0 58 -41 98.5t-98 40.5h-555q-59 0 -99.5 -40.5t-40.5 -98.5v-532q0 -57 41 -98.5t99 -41.5h415v-567z" />
    <glyph glyph-name="R" unicode="R" horiz-adv-x="1744" 
d="M1602 -291h-328l-522 834h-310v-543h-278v821h983q55 0 94 38.5t39 94.5q0 54 -39 93.5t-94 39.5h-705v-169l-278 446h983q170 0 292 -120.5t122 -289.5q0 -170 -121.5 -290.5t-292.5 -120.5h-66z" />
    <glyph glyph-name="S" unicode="S" horiz-adv-x="1687" 
d="M164 -291v567h979q55 0 94 40t39 94q0 56 -39 94.5t-94 38.5h-568q-170 0 -290.5 120.5t-120.5 290.5t120.5 291t290.5 121h979l-174 -279h-805q-55 0 -94 -38.5t-39 -94.5t39 -94.5t94 -38.5h568q170 0 290.5 -120.5t120.5 -290.5q0 -173 -121.5 -291.5t-295.5 -118.5
h-793z" />
    <glyph glyph-name="T" unicode="T" horiz-adv-x="1595" 
d="M936 -291l-279 449v929h-383l-172 279h1391l-174 -279h-383v-1378z" />
    <glyph glyph-name="U" unicode="U" horiz-adv-x="1718" 
d="M1137 0h-555q-173 0 -295.5 122t-122.5 294v950h278v-950q0 -57 41 -98.5t99 -41.5h555q57 0 98 41.5t41 98.5v950h278v-950q0 -172 -122.5 -294t-294.5 -122z" />
    <glyph glyph-name="V" unicode="V" horiz-adv-x="2033" 
d="M1018 0l-854 1366h973l-281 -448v169h-190l352 -561l524 840h328z" />
    <glyph glyph-name="W" unicode="W" horiz-adv-x="2883" 
d="M1872 0l-430 690l-428 -690l-850 1366h328l522 -840l264 426l-256 414h328l92 -149l92 149h328l-256 -414l266 -426l522 840h326z" />
    <glyph glyph-name="X" unicode="X" 
d="M1743 -291h-328l-518 834h-59l-338 -543h-328l424 682l-604 973h327l519 -834h59l338 545h328l-426 -684z" />
    <glyph glyph-name="Y" unicode="Y" 
d="M1004 -291l-279 447v417l-760 1082h340l559 -797l355 508h340l-555 -793v-864z" />
    <glyph glyph-name="Z" unicode="Z" horiz-adv-x="1697" 
d="M1380 0h-1216l821 1087h-543v-290l-278 448v121h1390l-833 -1090h833z" />
    <glyph glyph-name="bracketleft" unicode="[" horiz-adv-x="698" 
d="M535 -186h-46q-135 0 -230 95t-95 230v1088q0 135 95 230t230 95h46v-278h-46q-20 0 -33.5 -13.5t-13.5 -33.5v-1088q0 -20 13.5 -33.5t33.5 -13.5h46v-278z" />
    <glyph glyph-name="backslash" unicode="\" horiz-adv-x="1116" 
d="M952 0h-295l-493 1366h297z" />
    <glyph glyph-name="bracketright" unicode="]" horiz-adv-x="698" 
d="M211 -186h-47v278h47q19 0 32 13.5t13 33.5v1088q0 20 -13 33.5t-32 13.5h-47v278h47q134 0 229 -95t95 -230v-1088q0 -135 -95 -230t-229 -95z" />
    <glyph glyph-name="asciicircum" unicode="^" horiz-adv-x="1443" 
d="M1280 1061h-352l-205 264l-207 -264h-352l383 491h352z" />
    <glyph glyph-name="underscore" unicode="_" horiz-adv-x="1284" 
d="M1120 -463h-956v279h956v-279z" />
    <glyph glyph-name="grave" unicode="`" horiz-adv-x="0" 
d="M145 1552h-237l-314 244h357z" />
    <glyph glyph-name="a" unicode="a" horiz-adv-x="2029" 
d="M1866 0h-328l-176 285h-694l-176 -285h-328l852 1366zM1188 561l-172 279l-174 -279h346z" />
    <glyph glyph-name="b" unicode="b" 
d="M1145 0h-981v1366h889q172 0 291.5 -121.5t119.5 -288.5q0 -123 -65 -221q75 -58 116 -143.5t41 -179.5q0 -170 -120.5 -291t-290.5 -121zM1053 823q55 0 94 38.5t39 94.5t-39 95t-94 39h-611v-267h611zM1145 279q55 0 94 38.5t39 94.5t-39 94.5t-94 38.5h-703v-266h703z
" />
    <glyph glyph-name="c" unicode="c" 
d="M1139 0h-557q-173 0 -295.5 122.5t-122.5 295.5v532q0 172 122.5 294t295.5 122h557q173 0 295 -122t122 -294h-278q0 57 -40.5 98.5t-98.5 41.5h-557q-57 0 -98.5 -41.5t-41.5 -98.5v-532q0 -58 41.5 -98.5t98.5 -40.5h557q59 0 99 40.5t40 98.5h278q0 -173 -122 -295.5
t-295 -122.5z" />
    <glyph glyph-name="d" unicode="d" 
d="M1139 0h-975v1366h975q173 0 295 -122t122 -294v-532q0 -173 -122 -295.5t-295 -122.5zM1139 279q59 0 99 40.5t40 98.5v532q0 57 -40.5 98.5t-98.5 41.5h-697v-811h697z" />
    <glyph glyph-name="e" unicode="e" 
d="M1556 0h-1392v1366h1392v-276h-1114v-267h836v-278h-836v-266h1114v-279z" />
    <glyph glyph-name="f" unicode="f" 
d="M442 0h-278v1366h1392v-276h-1114v-267h836v-278h-836v-545z" />
    <glyph glyph-name="g" unicode="g" 
d="M1556 0h-974q-173 0 -295.5 122.5t-122.5 295.5v532q0 172 122.5 294t295.5 122h557q173 0 295 -122t122 -294h-278q0 57 -40.5 98.5t-98.5 41.5h-557q-57 0 -98.5 -41.5t-41.5 -98.5v-532q0 -58 41.5 -98.5t98.5 -40.5h696v266h-279v278h557v-823z" />
    <glyph glyph-name="h" unicode="h" 
d="M1556 0h-278v545h-836v-545h-278v1366h278v-543h836v543h278v-1366z" />
    <glyph glyph-name="i" unicode="i" horiz-adv-x="606" 
d="M442 0h-278v1366h278v-1366z" />
    <glyph glyph-name="j" unicode="j" horiz-adv-x="1163" 
d="M582 0h-418v279h418q58 0 98.5 40.5t40.5 98.5v672h-279v276h557v-948q0 -173 -122 -295.5t-295 -122.5z" />
    <glyph glyph-name="k" unicode="k" 
d="M1556 0h-370l-477 545h-267v-545h-278v1366h278v-543h267l477 543h370l-600 -682z" />
    <glyph glyph-name="l" unicode="l" 
d="M1556 0h-1392v1366h278v-1087h1114v-279z" />
    <glyph glyph-name="m" unicode="m" 
d="M1556 0h-278v696l-418 -417l-418 417v-696h-278v1366l696 -694l696 694v-1366z" />
    <glyph glyph-name="n" unicode="n" horiz-adv-x="1593" 
d="M1430 0l-988 788v-788h-278v1366l985 -786l2 786h279v-1366z" />
    <glyph glyph-name="o" unicode="o" 
d="M1139 0h-557q-173 0 -295.5 122.5t-122.5 295.5v532q0 172 122.5 294t295.5 122h557q173 0 295 -122t122 -294v-532q0 -173 -122 -295.5t-295 -122.5zM1139 279q59 0 99 40.5t40 98.5v532q0 57 -40.5 98.5t-98.5 41.5h-557q-57 0 -98.5 -41.5t-41.5 -98.5v-532
q0 -58 41.5 -98.5t98.5 -40.5h557z" />
    <glyph glyph-name="p" unicode="p" 
d="M442 0h-278v1366h981q170 0 290.5 -120t120.5 -290t-120.5 -290.5t-290.5 -120.5h-703v-545zM1145 823q55 0 94 38.5t39 94.5t-39 95t-94 39h-703v-267h703z" />
    <glyph glyph-name="q" unicode="q" horiz-adv-x="1843" 
d="M1679 0h-393l-20 20q-59 -20 -127 -20h-557q-173 0 -295.5 122.5t-122.5 295.5v532q0 172 122.5 294t295.5 122h557q173 0 295 -122t122 -294v-532q0 -127 -67 -228zM1008 279l-336 335h393l213 -213v549q0 57 -40.5 98.5t-98.5 41.5h-557q-57 0 -98.5 -41.5t-41.5 -98.5
v-532q0 -58 41.5 -98.5t98.5 -40.5h426z" />
    <glyph glyph-name="r" unicode="r" 
d="M1556 0h-370l-477 545h-267v-545h-278v1366h981q170 0 290.5 -120t120.5 -290t-120.5 -290.5t-290.5 -120.5h-66zM1145 823q55 0 94 38.5t39 94.5t-39 95t-94 39h-703v-267h703z" />
    <glyph glyph-name="s" unicode="s" 
d="M1145 0h-981v279h981q55 0 94 38.5t39 94.5t-39 94.5t-94 38.5h-570q-170 0 -290.5 120.5t-120.5 290.5t120.5 290t290.5 120h981v-276h-981q-55 0 -94 -39t-39 -95t39 -94.5t94 -38.5h570q170 0 290.5 -120.5t120.5 -290.5t-120.5 -291t-290.5 -121z" />
    <glyph glyph-name="t" unicode="t" 
d="M999 0h-278v1090h-557v276h1392v-276h-557v-1090z" />
    <glyph glyph-name="u" unicode="u" 
d="M1139 0h-557q-173 0 -295.5 122.5t-122.5 295.5v948h278v-948q0 -58 41.5 -98.5t98.5 -40.5h557q59 0 99 40.5t40 98.5v948h278v-948q0 -173 -122 -295.5t-295 -122.5z" />
    <glyph glyph-name="v" unicode="v" horiz-adv-x="2029" 
d="M1016 0l-852 1366h328l524 -840l522 840h328z" />
    <glyph glyph-name="w" unicode="w" horiz-adv-x="2840" 
d="M1827 0l-406 651l-405 -651l-852 1366h328l524 -840l405 652l406 -652l522 840h328z" />
    <glyph glyph-name="x" unicode="x" 
d="M1556 0h-327l-338 545h-60l-339 -545h-328l426 684l-426 682h328l339 -543h60l338 543h327l-426 -682z" />
    <glyph glyph-name="y" unicode="y" 
d="M999 0h-278v573l-557 793h340l356 -506l357 506h339l-557 -793v-573z" />
    <glyph glyph-name="z" unicode="z" 
d="M1556 0h-1392l823 1090h-823v276h1392l-833 -1087h833v-279z" />
    <glyph glyph-name="braceleft" unicode="{" horiz-adv-x="710" 
d="M547 -186q-87 0 -117.5 1t-146.5 1q-52 7 -85.5 46.5t-33.5 92.5l69 545q0 20 -13.5 32.5t-33.5 12.5v278q20 0 33.5 13t13.5 32l-69 545q0 58 41 98.5t98 40.5h244v-55q-43 -13 -69.5 -50.5t-26.5 -82.5l75 -580q0 -44 -24.5 -72t-67.5 -28q39 0 65.5 -28.5t26.5 -65.5
l-75 -588q0 -45 26 -81.5t70 -51.5v-55z" />
    <glyph glyph-name="bar" unicode="|" horiz-adv-x="606" 
d="M442 -186h-278v1738h278v-1738z" />
    <glyph glyph-name="braceright" unicode="}" horiz-adv-x="710" 
d="M408 -186h-244v55q43 15 69.5 51.5t26.5 79.5l-2 25l-72 559q-2 2 -2 6q0 38 28.5 66t66.5 28q-39 0 -66 26.5t-27 63.5v10l72 557l2 25q0 44 -26.5 81t-69.5 50v55h244q55 0 97 -40t42 -97l-70 -545q0 -21 13 -34t34 -13v-278q-20 0 -33.5 -13.5t-13.5 -33.5l68 -525
q2 -6 2 -20q0 -57 -40.5 -98t-98.5 -41z" />
    <glyph glyph-name="asciitilde" unicode="~" horiz-adv-x="1095" 
d="M700 545q-69 0 -127 37l-124 80q-16 8 -25 8q-50 -11 -62 -36t-12 -89h-186v39q0 116 79 192.5t197 79.5q48 0 95 -29l139 -90q11 -8 26 -8q18 0 31.5 14.5t13.5 32.5v80h187v-80q0 -96 -69.5 -163.5t-162.5 -67.5z" />
    <glyph glyph-name="exclamdown" unicode="&#xa1;" horiz-adv-x="606" 
 />
    <glyph glyph-name="cent" unicode="&#xa2;" 
 />
    <glyph glyph-name="sterling" unicode="&#xa3;" 
 />
    <glyph glyph-name="yen" unicode="&#xa5;" 
 />
    <glyph glyph-name="section" unicode="&#xa7;" horiz-adv-x="1722" 
 />
    <glyph glyph-name="dieresis" unicode="&#xa8;" horiz-adv-x="0" 
 />
    <glyph glyph-name="copyright" unicode="&#xa9;" horiz-adv-x="1765" 
 />
    <glyph glyph-name="ordfeminine" unicode="&#xaa;" horiz-adv-x="1265" 
 />
    <glyph glyph-name="guillemotleft" unicode="&#xab;" horiz-adv-x="1554" 
 />
    <glyph glyph-name="registered" unicode="&#xae;" horiz-adv-x="1765" 
 />
    <glyph glyph-name="macron" unicode="&#xaf;" horiz-adv-x="1284" 
 />
    <glyph glyph-name="degree" unicode="&#xb0;" horiz-adv-x="1081" 
 />
    <glyph glyph-name="plusminus" unicode="&#xb1;" horiz-adv-x="1284" 
 />
    <glyph glyph-name="twosuperior" unicode="&#xb2;" horiz-adv-x="1214" 
 />
    <glyph glyph-name="threesuperior" unicode="&#xb3;" horiz-adv-x="1214" 
 />
    <glyph glyph-name="acute" unicode="&#xb4;" horiz-adv-x="0" 
 />
    <glyph glyph-name="periodcentered" unicode="&#xb7;" horiz-adv-x="0" 
 />
    <glyph glyph-name="onesuperior" unicode="&#xb9;" horiz-adv-x="598" 
 />
    <glyph glyph-name="ordmasculine" unicode="&#xba;" horiz-adv-x="1265" 
 />
    <glyph glyph-name="guillemotright" unicode="&#xbb;" horiz-adv-x="1554" 
 />
    <glyph glyph-name="questiondown" unicode="&#xbf;" 
 />
    <glyph glyph-name="Agrave" unicode="&#xc0;" horiz-adv-x="2029" 
 />
    <glyph glyph-name="Aacute" unicode="&#xc1;" horiz-adv-x="2029" 
 />
    <glyph glyph-name="Acircumflex" unicode="&#xc2;" horiz-adv-x="2029" 
 />
    <glyph glyph-name="Atilde" unicode="&#xc3;" horiz-adv-x="2029" 
 />
    <glyph glyph-name="Adieresis" unicode="&#xc4;" horiz-adv-x="2029" 
 />
    <glyph glyph-name="Aring" unicode="&#xc5;" horiz-adv-x="2029" 
 />
    <glyph glyph-name="AE" unicode="&#xc6;" horiz-adv-x="3088" 
 />
    <glyph glyph-name="Ccedilla" unicode="&#xc7;" 
 />
    <glyph glyph-name="Egrave" unicode="&#xc8;" horiz-adv-x="1718" 
 />
    <glyph glyph-name="Eacute" unicode="&#xc9;" horiz-adv-x="1718" 
 />
    <glyph glyph-name="Ecircumflex" unicode="&#xca;" horiz-adv-x="1718" 
 />
    <glyph glyph-name="Edieresis" unicode="&#xcb;" horiz-adv-x="1718" 
 />
    <glyph glyph-name="Igrave" unicode="&#xcc;" horiz-adv-x="606" 
 />
    <glyph glyph-name="Iacute" unicode="&#xcd;" horiz-adv-x="606" 
 />
    <glyph glyph-name="Icircumflex" unicode="&#xce;" horiz-adv-x="606" 
 />
    <glyph glyph-name="Idieresis" unicode="&#xcf;" horiz-adv-x="606" 
 />
    <glyph glyph-name="Eth" unicode="&#xd0;" 
 />
    <glyph glyph-name="Ntilde" unicode="&#xd1;" horiz-adv-x="1591" 
 />
    <glyph glyph-name="Ograve" unicode="&#xd2;" horiz-adv-x="1718" 
 />
    <glyph glyph-name="Oacute" unicode="&#xd3;" horiz-adv-x="1718" 
 />
    <glyph glyph-name="Ocircumflex" unicode="&#xd4;" horiz-adv-x="1718" 
 />
    <glyph glyph-name="Otilde" unicode="&#xd5;" horiz-adv-x="1718" 
 />
    <glyph glyph-name="Odieresis" unicode="&#xd6;" horiz-adv-x="1718" 
 />
    <glyph glyph-name="multiply" unicode="&#xd7;" horiz-adv-x="1200" 
d="M840 190l-240 240l-240 -240l-196 197l239 240l-239 237l196 197l240 -238l240 238l196 -197l-239 -237l239 -240z" />
    <glyph glyph-name="Oslash" unicode="&#xd8;" horiz-adv-x="1718" 
 />
    <glyph glyph-name="Ugrave" unicode="&#xd9;" horiz-adv-x="1718" 
 />
    <glyph glyph-name="Uacute" unicode="&#xda;" horiz-adv-x="1718" 
 />
    <glyph glyph-name="Ucircumflex" unicode="&#xdb;" horiz-adv-x="1718" 
 />
    <glyph glyph-name="Udieresis" unicode="&#xdc;" horiz-adv-x="1718" 
 />
    <glyph glyph-name="Yacute" unicode="&#xdd;" 
 />
    <glyph glyph-name="Thorn" unicode="&#xde;" 
 />
    <glyph glyph-name="germandbls" unicode="&#xdf;" 
 />
    <glyph glyph-name="agrave" unicode="&#xe0;" horiz-adv-x="2029" 
 />
    <glyph glyph-name="aacute" unicode="&#xe1;" horiz-adv-x="2029" 
 />
    <glyph glyph-name="acircumflex" unicode="&#xe2;" horiz-adv-x="2029" 
 />
    <glyph glyph-name="atilde" unicode="&#xe3;" horiz-adv-x="2029" 
 />
    <glyph glyph-name="adieresis" unicode="&#xe4;" horiz-adv-x="2029" 
 />
    <glyph glyph-name="aring" unicode="&#xe5;" horiz-adv-x="2029" 
 />
    <glyph glyph-name="ae" unicode="&#xe6;" horiz-adv-x="3094" 
 />
    <glyph glyph-name="ccedilla" unicode="&#xe7;" horiz-adv-x="1722" 
 />
    <glyph glyph-name="egrave" unicode="&#xe8;" 
 />
    <glyph glyph-name="eacute" unicode="&#xe9;" 
 />
    <glyph glyph-name="ecircumflex" unicode="&#xea;" 
 />
    <glyph glyph-name="edieresis" unicode="&#xeb;" 
 />
    <glyph glyph-name="igrave" unicode="&#xec;" horiz-adv-x="606" 
 />
    <glyph glyph-name="iacute" unicode="&#xed;" horiz-adv-x="606" 
 />
    <glyph glyph-name="icircumflex" unicode="&#xee;" horiz-adv-x="606" 
 />
    <glyph glyph-name="idieresis" unicode="&#xef;" horiz-adv-x="606" 
 />
    <glyph glyph-name="ntilde" unicode="&#xf1;" horiz-adv-x="1593" 
 />
    <glyph glyph-name="ograve" unicode="&#xf2;" 
 />
    <glyph glyph-name="oacute" unicode="&#xf3;" 
 />
    <glyph glyph-name="ocircumflex" unicode="&#xf4;" 
 />
    <glyph glyph-name="otilde" unicode="&#xf5;" 
 />
    <glyph glyph-name="odieresis" unicode="&#xf6;" 
 />
    <glyph glyph-name="divide" unicode="&#xf7;" horiz-adv-x="1284" 
d="M1120 545h-956v278h956v-278zM643 1008q-58 0 -98.5 41t-40.5 98q0 59 40 99t99 40q57 0 98 -40.5t41 -98.5q0 -57 -41 -98t-98 -41zM643 80q-58 0 -98.5 41t-40.5 98q0 59 40 99t99 40q57 0 98 -40.5t41 -98.5q0 -57 -41 -98t-98 -41z" />
    <glyph glyph-name="oslash" unicode="&#xf8;" horiz-adv-x="1718" 
 />
    <glyph glyph-name="ugrave" unicode="&#xf9;" 
 />
    <glyph glyph-name="uacute" unicode="&#xfa;" 
 />
    <glyph glyph-name="ucircumflex" unicode="&#xfb;" 
 />
    <glyph glyph-name="udieresis" unicode="&#xfc;" 
 />
    <glyph glyph-name="yacute" unicode="&#xfd;" 
 />
    <glyph glyph-name="thorn" unicode="&#xfe;" 
 />
    <glyph glyph-name="ydieresis" unicode="&#xff;" 
 />
    <glyph glyph-name="idotless" unicode="&#x131;" horiz-adv-x="606" 
 />
    <glyph glyph-name="OE" unicode="&#x152;" horiz-adv-x="2828" 
 />
    <glyph glyph-name="oe" unicode="&#x153;" horiz-adv-x="2834" 
 />
    <glyph glyph-name="Scaron" unicode="&#x160;" horiz-adv-x="1687" 
 />
    <glyph glyph-name="scaron" unicode="&#x161;" 
 />
    <glyph glyph-name="Ydieresis" unicode="&#x178;" 
 />
    <glyph glyph-name="Zcaron" unicode="&#x17d;" horiz-adv-x="1697" 
 />
    <glyph glyph-name="zcaron" unicode="&#x17e;" 
 />
    <glyph glyph-name="gravecomb" unicode="&#x300;" horiz-adv-x="0" 
 />
    <glyph glyph-name="acutecomb" unicode="&#x301;" horiz-adv-x="0" 
 />
    <glyph glyph-name="circumflexcomb" unicode="&#x302;" horiz-adv-x="0" 
 />
    <glyph glyph-name="tildecomb" unicode="&#x303;" horiz-adv-x="0" 
 />
    <glyph glyph-name="macroncomb" unicode="&#x304;" horiz-adv-x="1202" 
 />
    <glyph glyph-name="dotaccentcomb" unicode="&#x307;" horiz-adv-x="0" 
 />
    <glyph glyph-name="dieresiscomb" unicode="&#x308;" horiz-adv-x="0" 
 />
    <glyph glyph-name="ringcomb" unicode="&#x30a;" horiz-adv-x="0" 
 />
    <glyph glyph-name="caroncomb" unicode="&#x30c;" horiz-adv-x="0" 
 />
    <glyph glyph-name="endash" unicode="&#x2013;" horiz-adv-x="1284" 
 />
    <glyph glyph-name="emdash" unicode="&#x2014;" horiz-adv-x="2013" 
 />
    <glyph glyph-name="quoteleft" unicode="&#x2018;" horiz-adv-x="606" 
 />
    <glyph glyph-name="quoteright" unicode="&#x2019;" horiz-adv-x="606" 
 />
    <glyph glyph-name="quotesinglbase" unicode="&#x201a;" horiz-adv-x="606" 
 />
    <glyph glyph-name="quotereversed" unicode="&#x201b;" horiz-adv-x="606" 
 />
    <glyph glyph-name="quotedblleft" unicode="&#x201c;" horiz-adv-x="950" 
 />
    <glyph glyph-name="quotedblright" unicode="&#x201d;" horiz-adv-x="950" 
 />
    <glyph glyph-name="quotedblbase" unicode="&#x201e;" horiz-adv-x="950" 
 />
    <glyph glyph-name="quotedblreversed" unicode="&#x201f;" horiz-adv-x="950" 
 />
    <glyph glyph-name="dagger" unicode="&#x2020;" 
 />
    <glyph glyph-name="bullet" unicode="&#x2022;" horiz-adv-x="866" 
 />
    <glyph glyph-name="ellipsis" unicode="&#x2026;" horiz-adv-x="1521" 
 />
    <glyph glyph-name="guilsinglleft" unicode="&#x2039;" horiz-adv-x="1226" 
 />
    <glyph glyph-name="guilsinglright" unicode="&#x203a;" horiz-adv-x="1226" 
 />
    <glyph glyph-name="fraction" unicode="&#x2044;" horiz-adv-x="1116" 
 />
    <glyph glyph-name="fraction" unicode="&#x2215;" horiz-adv-x="1116" 
 />
    <glyph glyph-name="minussuperior" unicode="&#x207b;" horiz-adv-x="999" 
 />
    <glyph glyph-name="minusinferior" unicode="&#x208b;" horiz-adv-x="999" 
 />
    <glyph glyph-name="lirasign" unicode="&#x20a4;" 
 />
    <glyph glyph-name="euro" unicode="&#x20ac;" 
 />
    <glyph glyph-name="minus" unicode="&#x2212;" horiz-adv-x="1284" 
d="M1120 545h-956v278h956v-278z" />
    </font>
</defs>
</svg>
